Login
SOFTWARE
Linux
Mac
Mobile
Other OS
Pocket PC
Windows CD/DVD Tool
Windows Other
Windows Photo Edit
Windows Security
Windows Sound Edit
Windows Video Apps
Unsorted

Български Информационен Блок

Tracker Info
Torrent Tracker ZipBg
Users:73287
torrents:843
seeds:642629
leechers:701287
peers:1343916
seeds/leechers:92%

Torrent’s details
Name Mad.Families.2017.WEBRip.x264-FGT
Torrent
Info Hash 32d822f5330051fcdea11babc8a06a8a356f07bf
Subtitle:
Sexy Pictures  Sexy Pictures  Sexy Pictures
Description Video
ID                                       : 1
Format                                   : AVC
Format/Info                              : Advanced Video Codec
Format profile                           : High@L3.1
Format settings, CABAC                   : Yes
Format settings, ReFrames                : 5 frames
Codec ID                                 : avc1
Codec ID/Info                            : Advanced Video Coding
Duration                                 : 1h 27mn
Bit rate                                 : 1 100 Kbps
Width                                    : 720 pixels
Height                                   : 400 pixels
Display aspect ratio                     : 16:9
Frame rate mode                          : Constant
Frame rate                               : 23.976 (24000/1001) fps
Color space                              : YUV
Chroma subsampling                       : 4:2:0
Bit depth                                : 8 bits
Scan type                                : Progressive
Bits/(Pixel*Frame)                       : 0.159
Stream size                              : 674 MiB (89%)

Audio
ID                                       : 2
Format                                   : AAC
Format/Info                              : Advanced Audio Codec
Format profile                           : LC
Codec ID                                 : 40
Duration                                 : 1h 27mn
Bit rate mode                            : Constant
Bit rate                                 : 128 Kbps
Channel(s)                               : 2 channels
Channel positions                        : Front: L R
Sampling rate                            : 48.0 KHz
Frame rate                               : 46.875 fps (1024 spf)
Compression mode                         : Lossy
Stream size                              : 80.2 MiB (11%)
Title                                    : Mad.Families.2017.WEBRip.x264-FGT
Language                                 : English


http://www.imdb.com/title/tt6086080/
 Вашите Съкровенни Мечти! Забранено за под 18 години
Category Comedy
Rating N/A
Size 758.67 MB
Show/Hide Files
4 files
AddDate 26/01/2017
Down 1183 times
peers seeds: 67, leechers: 17 = 84 peers


No comments...





CCleaner Professional

Watch Online Movie

Office 2013 Key Gen

Self Study English v8.0.3

Surrogates

Double Identity

All About Steve

Armored

Your ADS Here



Friends
BGNET.INFO Bulgarian Classified Sex YourFreeWebs Music Server DJ Pacolya ZaMamma.com YourFreeWebs Dating BG Free Movie | GoMovieTv